Culture Armagiddion War

Este blog opera em caráter primário e secundário, sendo portanto que algumas postagens não são de nossas propriedades, em alguns casos apenas ré-publicamos postagens e links, ou seja apenas mostramos um caminho direto pra que o usuário possa encontrá-los com mais facilidade. Download kenyatta hill armagiddion war Mp3 Gratis by Nathan Thibodeau Download Lagu Kenyatta Hill Armagiddion War Mp3, Lagu Kenyatta Hill - Armagiddion War Mp3, video Musik Culture - Armagiddion War Armagiddion War, Detail Lagu kenyatta hill armagiddion war Bisa anda lihat pada tabel di bawah. As a young boy born in the year of the bombing of Pearl Harbour I have been privy, in my growing up in Melbourne Australia, to witness the way in which the United States insinuated its post-war mentality into the Australian psyche. Lyrics for Armagiddion War by Kenyatta Hill. Enjoy millions of the latest Android apps, games, music, movies, TV, books, magazines & more. Vocal trio Culture helped define the sound and style of Rastafarian roots reggae, thanks largely to charismatic singer, songwriter, and leader Joseph Hill. Artist(s) Title1 Kenyatta Hill Behold2 Kenyatta Hill Iron Sharpen Iron3 Kenyatta Hill Armagiddion War4 Kenyatta Hill International Herb5 Kenyatta Hill See Dem A Come6 Kenyatta Hill Land Where We Belong7 Kenyatta Hill How Did I Stray8 Kenyatta Hill Money Girl9 Kenyatta Hill Lion Rock10 Kenyatta Hill Wings Of A Dove11 Kenyatta Hill Fussing And […]. lil frosh davido audio boris brejcha never look back original mix nic fanciulli movin' on original mix culture armagiddion war go rest high on that mountain vince gill oxia domino phaxe morten granau remix upper echelon travis scott owl pharaoh travis scott full album mia travis scott days before rodeo fisher losing it live at coachella 2019. Culture - Armagiddion War Culture - Babylon A Weep Culture - Callie Weed Song Culture - Determined Culture - Disobedient Children Culture - Down in Jamaca Culture - Dub Pyaka Culture - Forward To Africa Culture - Freedom Jam Culture - Garvey Rock (Down In Jamaica) Culture - Hav E Hav E Culture - Innocent Blood Culture - Jah Alone A Christian. (3:58) Kenyatta Hill - Behold (4:36) Kenyatta Hill - Armagiddion War 4. Jah Alone A Christian 04. The lyrics can frequently be found here (check the full description and comments) or by filtering for lyric videos. Song information for Armagiddion War - Culture on AllMusic. Virgin Records recogió los discos, y que culture los haya agregado a la venta permitió obtener una aún mayor después fuera de Jamaica. Live On: Tribute to Culture (Rymshot Productions) Kenyatta Hill's career began the day his father's ended. As a young boy born in the year of the bombing of Pearl Harbour I have been privy, in my growing up in Melbourne Australia, to witness the way in which the United States insinuated its post-war mentality into the Australian psyche. Category Music; Song Armagiddion War; Artist Culture; Licensed to YouTube by UMG (on behalf of New Rounder); LatinAutor, União Brasileira de Compositores, BMI - Broadcast Music Inc. Skip to main content. Armagiddion War在线试听,Culture_Armagiddion Warmp3下载,酷我音乐网提供Armagiddion War无损音乐,Culture_Armagiddion War高清MV,Armagiddion War无损下载,免费无损下载,无损音乐下载,高品质音乐,发烧音乐下载,HiFi音乐下载,无损音乐在线听,CD下载,FLAC音乐,APE音乐,320K,免费歌曲试听. Jah Alone A Christian在线试听,Culture_Jah Alone A Christianmp3下载,酷我音乐网提供Jah Alone A Christian无损音乐,Culture_Jah Alone A Christian高清MV,Jah Alone A Christian无损下载,免费无损下载,无损音乐下载,高品质音乐,发烧音乐下载,HiFi音乐下载,无损音乐在线听,CD下载,FLAC音乐,APE音乐,320K,免费歌曲试听. Obviously, the greatest example of what she can do can be heard on her amazing debut album, "Check Your Words" from last year on Feel Line Records. Armagiddion War (John Peel Sessions) by Culture on Grooveshark Check out the bass line. We Deh Yah Still 04. Culture’s Best Songs As picked by the jam community, 2011–2015 Armagiddion War Culture. Download free music from more than 20,000 African artists and listen to the newest hits. dubna 2011. Disobedient Children 06. Top: Catalog: Genre Index: Free DLs: Vinyls & CDs: Subscribe to our newsletter. I'm Not Ashamed 14. The culture of Jamaican riddims began many decades ago, as far back as the 1950s, where ska music brought about reggae and rocksteady riddims. As with war and famine, the severity and frequency with which “pestilences”—epidemics of highly infectious diseases—continue to strike is alarming. Money Girl 09. Paroles Musique is the best of music in lyrics and legal : almost 7 million songs and lyrics (official lyrics), 43 981 French translations !. Armagiddion War 05. Check out Reggae Anthology: Natty Dread Taking Over by Culture on Amazon Music. com Established 1974. A list of songs by Culture, which albums they are on and links to where to find them on Amazon and iTunes. The phrase "culture war" represents a loan translation from the German Kulturkampf. Preview, buy and download high-quality MP3 downloads of Reggae Anthology: Natty Dread Taking Over by Culture from zdigital Australia - We have over 19 million high quality tracks in our store. Culture comenzó a trabajar con algunos de los primeros músicos de la actualidad como Robbie Shakespeare , Sly Dunbar , Ansel Collins , Cedric Brooks y el percusionista Sticky siempre presente. International Herb 05. Ich War Genau Wie Ihr Phat Lifty feat. Vocal trio Culture helped define the sound and style of Rastafarian roots reggae, thanks largely to charismatic singer, songwriter, and leader Joseph Hill. Get Downtown Chico, Chico, CA, USA setlists - view them, share them, discuss them with other Downtown Chico, Chico, CA, USA fans for free on setlist. At the group's best, Culture had a unique style and sound but, when alone, Hill reverts to emulating. [C G F Am Bm] Chords for Kenyatta Hill - Armagiddion War with capo transposer, play along with guitar, piano, ukulele & mandolin. Forward To Africa. From there WMP has released 'Buss A Blank' by Konshens (also featured on Kingston Advice), 'Life Sweet' from G Whizz and the hit roots tune from Fanton Mojah, 'Rasta Got Soul'. The German word Kulturkampf (culture struggle) refers to the clash between cultural and religious groups in the campaign from 1871 to 1878 under Chancellor Otto von Bismarck of the German Empire against the influence of the Roman Catholic Church. Green Valley - Hijos de la tierra - *Nuevamente con un disco desde victoria, España nos encontramos ante le disco con el cual conocí a la banda su quinto álbum llamado Hijos de la tierra s. From 1 person. Este blog opera em caráter primário e secundário, sendo portanto que algumas postagens não são de nossas propriedades, em alguns casos apenas ré-publicamos postagens e links, ou seja apenas mostramos um caminho direto pra que o usuário possa encontrá-los com mais facilidade. Count Ossie & The Mystic Revelation of. Joseph Hill) (Reissued 1988) 1982 - Culture. The lyrics can frequently be found here (check the full description and comments) or by filtering for lyric videos. ROOTS AND CULTURE cultiva konopo bohoslužba. com website. Culture_One Stone (Album) 1996 mp3 Rocco's Jah Guidance Selection - Roots and Culture Dub Reggae - 7 - Brown, Gad, Scientist mp3 culture - production something (The 12" Mixes album) mp3 Culture - The Rastaman, Disobedient Children, EliJAH, LION Rock and Armagiddion War mp3 TRIBUTE JOSEPH CULTURE HILL BEST OF CLASSIC CULTURE mp3. CULTURE - 17 Chapters Of Culture--Faixas:-01 - Elijah 02 - Lion Rock 03 - We Deh Yah Still 04 - Forward to Africa 05 - Hand and Bowl 06 - Good Things 07 - Love Music 08 - Chanting On 09 - Cousin Rude Boy 10 - Youthman Move 11 - Righteous Living 12 - The Rastaman 13 - Babylon Big Dog 14 - Jah Alone a Christian 15 - Armagiddion War 16. Here you can buy and download music mp3 Culture. Visit the official website for The Clash. Armagiddion War 05. Who Can Make The Dance Ram. Forward To Africa. 'Born For This': A Review of "Live On: Tribute To Culture" by Kenyatta Hill I t's almost become a cliché these days - Hearing an artist saying something along the lines of "I was born to make this music" or my personal favourite, "I never choose the music, the music chose me". Reggaefrance est né en 1999 de la volonté de ses membres, animés par une passion commune, de prendre part au développement et à l'activisme de la scène Reggae / Dancehall en France et de partager ses découvertes musicales. Chords for Culture - Children of Israel. Culture With I-Roy - Natty Dread Taking Over. With a title like this, one would expect "Armagiddion War" to be an apocalyptic piece -- fire raining down, blood running along the streets, and a taut rhythm to further fuel war fever. The lyrics can frequently be found here (check the full description and comments) or by filtering for lyric videos. Lion Rock 09. Kenyatta Hill - Live On: Tribute To Culture 1. Play, streaming, watch and download Culture - Forward to africa video (06:30) , you can convert to mp4, 3gp, m4a for free. Cumbolo 04. Armageddon". rar) of a single artist, as well as albums with various artists such as the Now series of compilations (with VA tag); lossy is a class of data compression where compressing data and then decompressing it retrieves data that may well be different from the original. top albums. Listen to Reggae Anthology: Natty Dread Taking Overby Culture on Slacker Radio, where you can also create personalized internet radio stations based on your favorite albums, artists and songs. Lyrics for Armagiddion War by Kenyatta Hill. The latest music videos, short movies, tv shows, funny and extreme videos. Armagiddion War在线试听,Culture_Armagiddion Warmp3下载,酷我音乐网提供Armagiddion War无损音乐,Culture_Armagiddion War高清MV,Armagiddion War无损下载,免费无损下载,无损音乐下载,高品质音乐,发烧音乐下载,HiFi音乐下载,无损音乐在线听,CD下载,FLAC音乐,APE音乐,320K,免费歌曲试听. Green Valley - Hijos de la tierra - *Nuevamente con un disco desde victoria, España nos encontramos ante le disco con el cual conocí a la banda su quinto álbum llamado Hijos de la tierra s. CULTURE-Lion Rock´´-1991 O álbum Lion Rock pelo Culture e Joseph Hill foi lançado em 05 de julho de 1991 na etiqueta Heartbeat. 73 MB] Culture - Where Are All The Rastaman. Chordify gives you the chords for any song. Choose one of the browsed Armagiddion War Culture lyrics, get the lyrics and watch the video. lil frosh davido audio boris brejcha never look back original mix nic fanciulli movin' on original mix culture armagiddion war go rest high on that mountain vince gill oxia domino phaxe morten granau remix upper echelon travis scott owl pharaoh travis scott full album mia travis scott days before rodeo fisher losing it live at coachella 2019. 'The Revival has begun'. Babylon Big Dog 14. Este blog opera em caráter primário e secundário, sendo portanto que algumas postagens não são de nossas propriedades, em alguns casos apenas ré-publicamos postagens e links, ou seja apenas mostramos um caminho direto pra que o usuário possa encontrá-los com mais facilidade. Choose one of the browsed Armagiddion War Culture lyrics, get the lyrics and watch the video. Chords for Kenyatta Hill - Armagiddion War. Discovered using Shazam, the music discovery app. Culture - The Rastaman, Disobedient Children, EliJAH, LION Rock and Armagiddion War Upload, share, download and embed your videos. (3:23) Kenyatta Hill - International Herb 5. Hand and Bowl - Culture lyrics at InterLyrics. Throughout the 1960s and 1970s, reggae grew, becoming quite popular in the 1980s and took on a side form commonly termed dancehall. wav" WAVE INDEX 01 00:00:00 TRACK 05 AUDIO TITLE "Disobedient Children" PERFORMER "Culture" FLAGS DCP INDEX 00 04:21:10 FILE "05 - Culture - Disobedient Children. Enjoy millions of the latest Android apps, games, music, movies, TV, books, magazines & more. Fussing And Fighting 12. To start this download lagu you need to click on [Download] Button. We Deh Yah Still 04. All songs and albums from Culture you can listen and download for free at Mdundo. Disobedient Children. Armagiddion War, a song by Culture on Spotify We and our partners use cookies to personalize your experience, to show you ads based on your interests, and for measurement and analytics purposes. Skip to main content. Culture featuring Kenyatta Hill - Live at Reggae on the River 2017 Kenyatta Hill - Armagiddion War. Culture - 17 Chapters Of Culture 01. Culture still delivers the knock-outs, like the rolling "Babylon's Big Dog" and all-inclusive title track, but. Culture - Hand and Bowl lyrics What say to Jah people dem? Lorrd Hand a bowl, knife a throat No love in their heart See dem come live with dem Its a different thing They love to give you basket to carry water Deep within their hearts Just pure war they are after See dem come live with dem Its a different thing They all are! Hand a bowl, knife a. Double Tribute To The O. Obviously, the greatest example of what she can do can be heard on her amazing debut album, "Check Your Words" from last year on Feel Line Records. lyrics 7 Elijah lyrics 8 Lion Rock lyrics 9 We Deh Yah Still lyrics 10 Forward to Africa lyrics. Chords for Culture - Brother Bob Marley, - Featuring Joseph Hill. Culture's Best Songs As picked by the jam community, 2011-2015 Armagiddion War Culture. Disobedient Children. By using our website and our services, you agree to our use of cookies as described in our Cookie Policy. 1 The Rastaman lyrics 2 Babylon's Big Dog lyrics 3 Jah Alone a Christian lyrics 4 Armagiddion War lyrics 5 Disobedient Children lyrics 6 A Double Tribute to the O. Visit the official website for The Clash. Lyrics for Armageddon by Culture. Download free music from more than 20,000 African artists and listen to the newest hits. Para o espanto de promotores, fãs e críticos, Kenyatta pisou no palco e entregou performances eletrizantes. From 1 person I Tried Culture. Top: Catalog: Genre Index: Free DLs: Vinyls & CDs: Subscribe to our newsletter. Try Prime Armagiddion War on Lion Rock. Full discography of Culture. Armagiddion War, a song by Culture on Spotify We and our partners use cookies to personalize your experience, to show you ads based on your interests, and for measurement and analytics purposes. All songs and albums from Culture you can listen and download for free at Mdundo. Browse for Armagiddion War Culture song lyrics by entered search phrase. La similitud entre el padre y el hijo era tan evidente en el rendimiento deslumbrante de Kenyatta en Tru-Jugo Rebel Salute 2007, en Port Kaiser, St. From 1 person. Get best audio quality Joseph Hill Songs. KENYATTA HILL A carreira de Kenyatta Colina começou o dia terminou de seu pai. All creatures of our God and King All living things will praise From the ends of the earth The saints will rise to sing They'll sing From v. 1 The Rastaman lyrics 2 Babylon's Big Dog lyrics 3 Jah Alone a Christian lyrics 4 Armagiddion War lyrics 5 Disobedient Children lyrics 6 A Double Tribute to the O. Find the lyrics for Disobedient Children by Culture on Rockol. Here you can buy and download music mp3 Culture. Virgin Records recogió los discos, y que culture los haya agregado a la venta permitió obtener una aún mayor después fuera de Jamaica. Stream ad-free or purchase CD's and MP3s now on Amazon. Forward To Africa 05. Lion Rock came out before the breakup of the group and catches them close to their peak-still telling tales of the sufferer stuck in Babylon(Babylon's Big Dog and We Deh Ya Still)and the strength. The Rastaman 02. Forward To Africa. Originally they were known as the African Disciples. Disobedient Children 06. Para o espanto de promotores, fãs e críticos, Kenyatta pisou no palco e entregou performances eletrizantes. TITLE "Armagiddion War" PERFORMER "Culture" FLAGS DCP INDEX 00 04:42:65 FILE "04 - Culture - Armagiddion War. The Rasta Man, Babylon Big Dog, Jah Alone A Christian, Armagiddion War, Disobedient Children, A Double Tribute To The O. The more and more I listen to that record, the more and more impressed I am and I wouldn't at all be surprised if, in a decade or so (hopefully aided by another three or four releases from Reemah in that time), I came to regard it as a modern classic. Get known every word of your favorite song or start your own karaoke party tonight :-). Lyrics to 'Armagiddion War' by Culture. Watch premium and official videos free online. Joseph Hill, singer and songwriter for the legendary Jamaican vocal trio Culture, collapsed and died while on a 2006 tour of Europe. Choose one of the browsed Culture Armagiddion War lyrics, get the lyrics and watch the video. Lyrics to 90 songs by Culture including "Why Am I a Rastaman?", "Two Sevens Clash" and more. Kenyatta Hill - Afrikan [Official Video. Lyrics for Armageddon by Culture. The Internet's largest buyer and seller of used CDs, used DVDs, used Blu-rays, and used Video Games. war” was taking place, a “struggle for the soul of America. Vídeo e letra de Praise Him por Culture. With music streaming on Deezer you can discover more than 56 million tracks, create your own playlists, and share your favourite tracks with your friends. Chordify gives you the chords for any song. Disobedient Children 06. mp3 05 - Disobedient Children. From 1 person I Tried Culture. Parceria Segurança. Top lyrics Community Contribute Business. Download album for just $5. Armagiddion War, a song by Culture on Spotify We and our partners use cookies to personalize your experience, to show you ads based on your interests, and for measurement and analytics purposes. Worth your time. Psalm Of Bob Marley. The latest music videos, short movies, tv shows, funny and extreme videos. Lyrics to 90 songs by Culture including "Why Am I a Rastaman?", "Two Sevens Clash" and more. (3:23) Kenyatta Hill - International Herb 5. Very fast and get best audio quality Duet Expert. Purchase Lion Rock by Culture on CD online and enjoy having your favourite Reggae music delivered to you in South Africa. There are 60 lyrics related to Armagiddion War Culture. 70 (limited offer). MP3 is a digital audio format without digital rights management (DRM) technology. Babylon's Big Dog 03. Preview, buy and download high-quality MP3 downloads of Reggae Anthology: Natty Dread Taking Over by Culture from zdigital Australia - We have over 19 million high quality tracks in our store. BURIAL HEX Throne by Cold Spring published on 2016-10-27T10:18:20Z BURIAL HEX 'Throne' CD (CSR232CD) Finally a third volume of the essential reissue series featuring rare and out-of-print vinyl releases from Horror Electronics maestro Burial Hex. Working Subscribe Subscribed Unsubscribe 24. Play along with guitar, ukulele, or piano with interactive chords and diagrams. Culture featuring Kenyatta Hill - Live at Reggae on the River 2017 Kenyatta Hill - Armagiddion War. Get lyrics of Culture armagiddion war song you love. Armagiddion War by Culture. This is a page for those who love reggae music and in particular Culture music. Pay Day 10. com website. [C G F Am Bm] Chords for Kenyatta Hill - Armagiddion War with capo transposer, play along with guitar, piano, ukulele & mandolin. Culture is a band of boundless energy, serious creativity, and deep roots and even though it's the same Culture we all love on Lion Rock, the overall feel of the album is just a tad bubblier and flimsier than a true Culture epic. Type song title, artist or lyrics. Direct download via HTTP available as well. Culture - Armagiddion War Culture - Babylon A Weep Culture - Callie Weed Song Culture - Determined Culture - Disobedient Children Culture - Down in Jamaca Culture - Dub Pyaka Culture - Forward To Africa Culture - Freedom Jam Culture - Garvey Rock (Down In Jamaica) Culture - Hav E Hav E Culture - Innocent Blood Culture - Jah Alone A Christian. Culture - Armagiddion War by StrictlyRasProphecy. Lashley,Robert, Stagliano,Joel, Lipman Juakali 0x26EbIwppGcMeFQD3HO5K Foreign Familiar 20 Questions 0x6HSto4YpQK7vyLuNzPnb Ellas Siempre Regresan 0xGqXViYio4FIGBHuPFFd2 Floating in a Test Tube Bram van den Oever Gluid. co for free. The text does however seem to imply, based on the text from the earlier passage of Revelation 16:14, that the purpose of this gathering of kings in the "place called Armageddon" is "for the war of the great day of God, the Almighty". Babylon's Big Dog 03. Culture Armagiddion War lyrics. Find and follow posts tagged tarrusriley on Tumblr. Check out Culture on Amazon Music. Babyon's Big Dog 03. Jamaican music has ushered in the new year in style for 2012 with a number of impressive riddims and singles dropping throughout January. Get lyrics of Culture be honest song you love. See also: Baldhead Bridge lyrics, Harder than the Rest lyrics, Two Sevens Clash lyrics, Cumbolo lyrics, International Herb lyrics, Three Sides to My Story lyrics, Lion Rock lyrics, Culture at Work lyrics, Culture in Culture lyrics, Nuff Crisis lyrics, Good Things lyrics, Too Long in Slavery lyrics, 17 Chapters of Culture lyrics, Wings of a Dove. top albums. Stream ad-free with Amazon Music Unlimited on mobile, desktop, and tablet. Este blog opera em caráter primário e secundário, sendo portanto que algumas postagens não são de nossas propriedades, em alguns casos apenas ré-publicamos postagens e links, ou seja apenas mostramos um caminho direto pra que o usuário possa encontrá-los com mais facilidade. Check out Reggae Anthology: Natty Dread Taking Over by Culture on Amazon Music. Lyrics to 'Honest' by Future. A brand new website launched to recognise World Clash Day, it features an extensive Timeline Discography of albums and singles, Tour Concert History, Biography, as well as a photo gallery, news, fan wall content and a massive video archive. Direct download via HTTP available as well. Culture - Armagiddion War by StrictlyRasProphecy. La similitud entre el padre y el hijo era tan evidente en el rendimiento deslumbrante de Kenyatta en Tru-Jugo Rebel Salute 2007, en Port Kaiser, St. This track was tagged with the following keywords: Reggae. Ich War Genau Wie Ihr Phat Lifty feat. Culture - Forward to africa Culture -- Satan company Culture - Armagiddion War Culture_One Stone (Album) 1996 Culture, 2000-12-14, Live In South Africa Culture - Be Honest, Marcus, Wings Of A Dove, English Fireplace. Following the debut of "Live On Tribute to Culture", Kenyatta Hill announced "Riddim Of Life" on N/A. 73 MB] Culture - Where Are All The Rastaman. CULTURE-Lion Rock´´-1991 O álbum Lion Rock pelo Culture e Joseph Hill foi lançado em 05 de julho de 1991 na etiqueta Heartbeat. Chords for Culture - Brother Bob Marley, - Featuring Joseph Hill. rar) of a single artist, as well as albums with various artists such as the Now series of compilations (with VA tag); lossy is a class of data compression where compressing data and then decompressing it retrieves data that may well be different from the original. They Never Love In This Time 02. M-Fresh 0a2c1129-65c5-4a99-acde-c22ab8cbafff Acid Attack No Assembly Firm 0a308284-5bd2-4bf7-aea1-7de0dc8ec148 When the Bear. Plan automatically renews after trial. Land Where We Belong 07. wav" WAVE INDEX 01 00:00:00 TRACK 05 AUDIO TITLE "Disobedient Children" PERFORMER "Culture" FLAGS DCP INDEX 00 04:21:10 FILE "05 - Culture - Disobedient Children. Lion Rock 09. Armagiddion War by Kenyatta Hill No lyrics text found for this track. Culture's Lion Rock has always touched my soul, spirit and heart. Lion Rock (Feat. The Rastaman 02. Choose from a huge selection of used CDs, used DVDs, used Blu-rays, and used Video Games. lyrics 7 Elijah lyrics 8 Lion Rock lyrics 9 We Deh Yah Still lyrics 10 Forward to Africa lyrics. Disobedient Children 06. All songs and albums from Culture you can listen and download for free at Mdundo. Disobedient Children 17. Now available 127 songs from 21 albums. Chords for Culture - Brother Bob Marley, - Featuring Joseph Hill. Loading Unsubscribe from StrictlyRasProphecy? Cancel Unsubscribe. Culture - Natty Dread Taking Over [2012] Armagiddion War. hommage roots reggaedédicace rastarte & jahwanji & sister ambrasemahdi. 34 MB] Culture - We Were Brought Here In Captivity. wav" WAVE INDEX 01 00:00:00 TRACK 05 AUDIO TITLE "Disobedient Children" PERFORMER "Culture" FLAGS DCP INDEX 00 04:21:10 FILE "05 - Culture - Disobedient Children. Listen to thousands of Bongo, Gospel, DJ Mixes, Dancehall & Hip Hop for Free. Music is a Mission, the first full album by Turin dub activist MrDill Lion Warriah is a tribute not only to the dedicated Italian mc, producer, and singer, but it to the international dub community that MrDill has worked with for many years. A Double Tribute To The O. A brand new website launched to recognise World Clash Day, it features an extensive Timeline Discography of albums and singles, Tour Concert History, Biography, as well as a photo gallery, news, fan wall content and a massive video archive. Stream ad-free or purchase CD's and MP3s now on Amazon. Culture - Trying Hard To Study Rastaman. Good Things 07. Download Culture torrent or any other torrent from category. Cousin Rude Boy 10. The video above was also directed by Gayle and adds to the reasons why the future for WMP looks bright. Arguably, "Armagiddion War" and the title track boast the strongest melodies, while the single "Disobedient Children," with its punchy horns, is one of the few where the band's performance actually matches Hill's own. Forward To Africa. TITLE "Armagiddion War" PERFORMER "Culture" FLAGS DCP INDEX 00 04:42:65 FILE "04 - Culture - Armagiddion War. Reggae Anthology: Culture - Natty Dread Taking Over Culture The term "culture" appeared first in its current sense in Europe in the 18th and 19th centuries, to connote a process of cultivation or im…. The Rastaman 13. CULTURE - Reggae Anthology: Natty Dread Taking Over (2012) CD 1 01 Two Sevens Clash 02 This time 03 See Them Come 04 I'm Not Ashamed 05. Download Culture torrent or any other torrent from category. ROOTS AND CULTURE cultiva konopo bohoslužba. The latest Tweets from ROOTS IN CONTROL (@rootsincontrol). Get Downtown Chico, Chico, CA, USA setlists - view them, share them, discuss them with other Downtown Chico, Chico, CA, USA fans for free on setlist. There are 60 lyrics related to Culture Armagiddion War. How Did I Stray 08. Armageddon". Last century, the medical profession prematurely claimed victory over a wide array of bacterial and viral killers. Culture Album By Album Recording Information. Full discography of Culture. Culture Reasoning lyrics & video : Well I have something fe tell you And when I tell you this You say father, pop story, gimme Well father ready fe pop story now So I hope you'. True to their name, Culture's material was devoted almost exclusively to spiritual, social, an read more. Arguably, "Armagiddion War" and the title track boast the strongest melodies, while the single "Disobedient Children," with its punchy horns, is one of the few where the band's performance actually matches Hill's own. More ways to shop: Visit an Apple Store, call 1-800-MY-APPLE, or find a reseller. Kenyatta Hill - Live On: Tribute To Culture. The latest music videos, short movies, tv shows, funny and extreme videos. Culture - Lion Rock / Jul 05, 1991 / 01. Now available 127 songs from 21 albums. Lashley,Robert, Stagliano,Joel, Lipman Juakali 0x26EbIwppGcMeFQD3HO5K Foreign Familiar 20 Questions 0x6HSto4YpQK7vyLuNzPnb Ellas Siempre Regresan 0xGqXViYio4FIGBHuPFFd2 Floating in a Test Tube Bram van den Oever Gluid. Disobedient Children 06. Armagiddion War official lyrics by Culture. Browse for Culture Armagiddion War song lyrics by entered search phrase. ROOTS AND CULTURE cultiva konopo bohoslužba. Reggaefrance est né en 1999 de la volonté de ses membres, animés par une passion commune, de prendre part au développement et à l'activisme de la scène Reggae / Dancehall en France et de partager ses découvertes musicales. Obviously, the greatest example of what she can do can be heard on her amazing debut album, "Check Your Words" from last year on Feel Line Records. com Established 1974. Chords for Kenyatta Hill - Armagiddion War. Dark marks all on me I'm just honest Rock star my swag I'm just honest Everything exotic I'm just honest Gold all on my neck I'm just honest Yeah, I'm just honest. Take a day off and rest yourself Praise your God for another day Take a day off and rest yourself Praise your God for another day Praise him. ” In the aftermath of this address, the idea of a “culture war” became a jour-nalistic staple. 27 Culture - Armagiddion War 28 Culture - Come Jah People 29 Culture - Disobedient Children 30 Culture - We A Boss 31 Culture - Psalm Of Bob Marley 32 Culture - Addis Ababa 33 Culture - Riverside 34 Culture - Legalization 35 Culture - Election 36 Culture - Poor People Hungry 37 Culture - Revolution 38 Culture - Why Am I A Rastaman?. 5,781 likes · 63 talking about this. Buy 'Reggae Anthology: Natty Dread Taking Over by Culture' MP3 download online from 7digital United States - Over 30 million high quality tracks in our store. Armageddon". Lyrics for Armagiddion War by Kenyatta Hill. Este blog opera em caráter primário e secundário, sendo portanto que algumas postagens não são de nossas propriedades, em alguns casos apenas ré-publicamos postagens e links, ou seja apenas mostramos um caminho direto pra que o usuário possa encontrá-los com mais facilidade. At the group's best, Culture had a unique style and sound but, when alone, Hill reverts to emulating. Love Music 08. Psalms Of. Forward To Africa. Get known every word of your favorite song or start your own karaoke party tonight :-). The Rastaman 13. Jamaican music has ushered in the new year in style for 2012 with a number of impressive riddims and singles dropping throughout January. Plan automatically renews after trial. Click the button below to add the Reggae Anthology - Natty Dread Taking Over Cddvd - Culture to your wish list. The Culture of War [Martin van Creveld] on Amazon. 689,303 views. Play along with guitar, ukulele, or piano with interactive chords and diagrams. Lyrics to 'Honest' by Future. Purchase Lion Rock by Culture on CD online and enjoy having your favourite Reggae music delivered to you in South Africa. Culture Forward to africa. Type song title, artist or lyrics. Category Music; Song Armagiddion War; Artist Culture; Licensed to YouTube by UMG (on behalf of New Rounder); LatinAutor, União Brasileira de Compositores, BMI - Broadcast Music Inc. [C G F Am Bm] Chords for Kenyatta Hill - Armagiddion War with capo transposer, play along with guitar, piano, ukulele & mandolin. The more and more I listen to that record, the more and more impressed I am and I wouldn't at all be surprised if, in a decade or so (hopefully aided by another three or four releases from Reemah in that time), I came to regard it as a modern classic. Chordify gives you the chords for any song. 1 liked it. lyrics 7 Elijah lyrics 8 Lion Rock lyrics 9 We Deh Yah Still lyrics 10 Forward to Africa lyrics. Uma sessão de 80 exemplares com Hill em sua melhor forma,com o melhoe desse extraordinário trio voval jamaicano. Help us build the world's largest lyrics collection by contributing lyrics in the comments below. 04 - Armagiddion War. Who Can Make The Dance Ram. From 1 person. Lion Rock is very traditional Reggae that none of today's reggae players can macth up with. Buy 'Reggae Anthology: Natty Dread Taking Over by Culture' MP3 download online from 7digital United States - Over 30 million high quality tracks in our store. Full discography of Culture. True to their name, Culture's material was devoted almost exclusively to spiritual, social, an read more. Lyrics to 'Honest' by Future. By using our website and our services, you agree to our use of cookies as described in our Cookie Policy. wav" WAVE INDEX 01 00:00:00 TRACK 06 AUDIO TITLE "A Double Tribute To The O. by culture77. Visit the official website for The Clash. Culture be honest lyrics. Joseph Hill, singer and songwriter for the legendary Jamaican vocal trio Culture, collapsed and died while on a 2006 tour of Europe. Download kenyatta hill armagiddion war Mp3 Gratis by Nathan Thibodeau Download Lagu Kenyatta Hill Armagiddion War Mp3, Lagu Kenyatta Hill - Armagiddion War Mp3, video Musik Culture - Armagiddion War Armagiddion War, Detail Lagu kenyatta hill armagiddion war Bisa anda lihat pada tabel di bawah. Now we recommend you to Download first result Culture Best Of The Greatest Hits Featuring Joseph Hill Mix By Djeasy MP3 which is uploaded by Djeasy MuzikRyder of size 115. Culture - Forward to africa Culture -- Satan company Culture - Armagiddion War Culture_One Stone (Album) 1996 Culture, 2000-12-14, Live In South Africa Culture - Be Honest, Marcus, Wings Of A Dove, English Fireplace. Chordify gives you the chords for any song. Appears On See All. Category Music; Song Armagiddion War; Artist Culture; Licensed to YouTube by UMG (on behalf of New Rounder); LatinAutor, União Brasileira de Compositores, BMI - Broadcast Music Inc. Listen to music from Culture feat. Reggae artists, biographies, discographies, new releases, photos, videos, music samples. Culture - Forward To Africa Upload, share, download and embed your videos. 1 The Rastaman lyrics 2 Babylon's Big Dog lyrics 3 Jah Alone a Christian lyrics 4 Armagiddion War lyrics 5 Disobedient Children lyrics 6 A Double Tribute to the O. Armagiddion War by Culture. Includes transpose, capo hints, changing speed and much more. Find the lyrics for Armagiddion War by Culture on Rockol. Culture was a Jamaican roots reggae group founded in 1976.